<?xml version="1.0" standalone="no"?>
<!DOCTYPE svg PUBLIC "-//W3C//DTD SVG 1.1//EN" "http://www.w3.org/Graphics/SVG/1.1/DTD/svg11.dtd" >
<svg xmlns="http://www.w3.org/2000/svg">
<metadata>Generated by IcoMoon</metadata>
<defs>
<font id="lc_lightbox" horiz-adv-x="512">
<font-face units-per-em="512" ascent="480" descent="-32" />
<missing-glyph horiz-adv-x="512" />
<glyph unicode="&#x20;" horiz-adv-x="256" d="" />
<glyph unicode="&#xe600;" glyph-name="share" d="M411.861 145.136c-21.366 0-40.514-8.425-55.171-21.841l-175.683 86.653c0.159 1.849 0.581 3.671 0.581 5.599 0 1.241-0.317 2.43-0.369 3.618l180.965 91.882c13.786-10.697 30.848-17.351 49.678-17.351 45.109 0 81.688 36.552 81.688 81.582-0.026 45.056-36.579 81.582-81.688 81.582-44.977 0-81.503-36.526-81.503-81.555l-183.526-93.124c-13.258 9.35-29.343 14.949-46.826 14.949-45.030 0-81.555-36.526-81.555-81.582 0-45.003 36.526-81.635 81.555-81.635 17.378 0 33.383 5.573 46.614 14.817l184.24-90.826c2.906-42.336 37.873-75.904 80.975-75.904 45.109 0 81.688 36.499 81.688 81.529s-36.552 81.608-81.661 81.608z" />
<glyph unicode="&#xe900;" glyph-name="comprime" d="M252.457 197.202v-128c0-4.914-1.828-9.257-5.486-12.914s-7.886-5.372-12.8-5.372-9.257 1.829-12.915 5.486l-41.143 41.143-94.857-94.857c-1.943-1.943-4.114-2.857-6.629-2.857s-4.686 0.914-6.629 2.857l-32.572 32.572c-1.943 1.943-2.857 4.115-2.857 6.628s0.914 4.685 2.857 6.628l94.857 94.857-41.143 41.143c-3.657 3.657-5.486 7.885-5.486 12.914s1.829 9.257 5.486 12.914 7.886 5.486 12.915 5.486h128.114c4.915 0 9.257-1.829 12.915-5.486s5.371-8.228 5.371-13.143zM475.428 396.973c0-2.514-0.914-4.685-2.857-6.628l-94.857-94.857 41.143-41.143c3.657-3.657 5.486-7.886 5.486-12.915s-1.829-9.257-5.486-12.914c-3.657-3.657-7.885-5.257-12.8-5.257h-128c-4.914 0-9.257 1.828-12.914 5.486s-5.372 7.885-5.372 12.8v128c0 4.914 1.829 9.257 5.486 12.914s7.885 5.486 12.914 5.486c5.029 0 9.257-1.828 12.914-5.486l41.143-41.143 94.857 94.857c1.943 1.943 4.115 2.857 6.628 2.857s4.685-0.915 6.628-2.857l32.572-32.571c1.6-1.943 2.514-4.115 2.514-6.629z" />
<glyph unicode="&#xe901;" glyph-name="cancel" d="M313.392 223.984l97.536-97.536c6.336-6.336 6.336-16.624 0-22.96l-34.416-34.416c-6.336-6.336-16.608-6.336-22.96 0l-97.552 97.536-97.552-97.536c-6.336-6.336-16.608-6.336-22.944 0l-34.432 34.416c-6.336 6.336-6.336 16.608 0 22.96l97.552 97.536-97.552 97.552c-6.336 6.336-6.336 16.624 0 22.96l34.448 34.416c6.336 6.336 16.608 6.336 22.944 0l97.536-97.552 97.552 97.552c6.336 6.336 16.608 6.336 22.96 0l34.416-34.432c6.336-6.336 6.336-16.608 0-22.96l-97.536-97.536z" />
<glyph unicode="&#xe902;" glyph-name="th_new3" d="M229.134 237.154h-182.743c-5.029 0-9.143 4.114-9.143 9.143v183.315c0 5.029 4.114 9.143 9.143 9.143h182.743c5.029 0 9.143-4.115 9.143-9.143v-183.315c0-5.029-4.114-9.143-9.143-9.143zM229.134-36.56h-182.743c-5.029 0-9.143 4.115-9.143 9.143v182.743c0 5.029 4.114 9.143 9.143 9.143h182.743c5.029 0 9.143-4.115 9.143-9.143v-182.743c0-5.029-4.114-9.143-9.143-9.143zM319.991 236.925h182.857c5.029 0 9.143 4.115 9.143 9.143v182.857c0 5.029-4.115 9.143-9.143 9.143h-182.857c-5.029 0-9.143-4.115-9.143-9.143v-182.857c0-5.029 4.115-9.143 9.143-9.143zM319.991 165.154h182.857c5.029 0 9.143-4.115 9.143-9.143v-182.857c0-5.029-4.115-9.143-9.143-9.143h-182.857c-5.029 0-9.143 4.115-9.143 9.143v182.857c0 5.029 4.115 9.143 9.143 9.143z" />
<glyph unicode="&#xe903;" glyph-name="file-web" d="M458.9 360.929c-11.1 15.1-26.6 32.8-43.6 49.9s-34.7 32.5-49.9 43.6c-25.7 18.8-38.2 21-45.4 21h-248c-22.1 0-40-17.9-40-40v-432c0-22.1 17.9-40 40-40h368c22.1 0 40 17.9 40 40v312c0 7.2-2.2 19.7-21.1 45.5v0c0 0 0 0 0 0zM392.7 388.129c15.3-15.4 27.4-29.2 36.3-40.7h-77v77c11.5-8.9 25.3-21 40.7-36.3v0 0 0zM448 3.429c0-4.3-3.7-8-8-8h-368c-4.3 0-8 3.7-8 8v432c0 4.3 3.7 8 8 8 0 0 248 0 248 0v-112c0-8.8 7.2-16 16-16h112v-312zM254.2 283.429c71.7 0 129.8-58.2 129.8-129.8s-58.2-129.8-129.8-129.8-129.8 58.2-129.8 129.8 58.1 129.8 129.8 129.8zM300.5 195.329c-1.4-1-2.2-2.9-3.9-3.2 0.8 0.2 1.7 3.2 2.2 3.9 1 1.2 2.4 1.9 3.7 2.5 2.9 1.2 5.7 1.5 8.8 2 2.9 0.7 6.4 0.7 8.6-1.9-0.5 0.5 3.6 4.1 4.1 4.2 1.5 0.8 4.1 0.5 5.1 2 0.3 0.5 0.3 3.7 0.3 3.7-2.9-0.3-3.9 2.4-4.1 4.7 0-0.2-0.3-0.7-1-1.4 0.2 2.5-3 0.7-4.2 1-3.9 1-3.4 3.7-4.6 6.6-0.7 1.5-2.5 2-3.2 3.6-0.7 1-1 3.2-2.5 3.4-1 0.2-2.9-3.6-3.2-3.4-1.5 0.8-2.2-0.3-3.4-1-1-0.7-1.9-0.3-2.9-0.8 3 1-1.4 2.7-2.9 2.4 2.4 0.7 1.2 3.2-0.2 4.4h0.8c-0.3 1.5-5.1 2.9-6.6 3.9s-9.6 2.7-11.3 1.7c-2-1.2 0.5-4.6 0.5-6.3 0.2-2-2-2.5-2-4.2 0-2.9 5.4-2.4 4.1-6.3-0.8-2.4-4.1-2.9-5.4-4.7-1.4-1.7 0.2-4.7 1.5-5.9 1.4-1-2.4-2.7-2.9-3-2.9-1.4-5.1 2.9-5.7 5.4-0.5 1.9-0.7 4.1-2.7 5.1-1 0.3-4.2 0.8-4.9-0.2-1 2.5-4.6 3.6-6.9 4.4-3.4 1.2-6.3 1.2-9.8 0.7 1.2 0.2-0.3 5.4-3.2 4.6 0.8 1.7 0.5 3.6 0.8 5.2 0.3 1.4 1 2.7 2 3.9 0.3 0.7 4.1 4.6 2.9 4.7 2.9-0.3 6.1-0.5 8.5 1.9 1.5 1.5 2.2 4.1 3.7 5.7 2.2 2.5 4.9-0.7 7.3-0.8 3.4-0.2 3.2 3.6 1.4 5.2 2.2-0.2 0.3 3.9-0.8 4.4-1.5 0.5-7.3-1-4.2-2.2-0.7 0.3-4.7-8.1-7.1-3.9-0.7 0.8-1 4.4-2.5 4.6-1.4 0-2.2-1.5-2.7-2.5 0.8 2.2-4.7 3.7-5.9 3.9 2.5 1.7 0.5 3.6-1.4 4.6-1.4 0.8-5.6 1.5-6.8 0.2-3.2-3.9 3.4-4.4 5.1-5.4 0.5-0.3 2.5-1.5 1.4-2.4-1-0.5-4.1-1.4-4.4-2-1-1.5 1.2-3.2-0.3-4.7-1.5 1.5-1.5 4.1-2.7 5.7 1.5-1.9-6.1-0.8-5.9-0.8-2.5 0-6.6-1.7-8.5 0.8-0.3 0.7-0.3 4.6 0.7 3.7-1.5 1.2-2.5 2.4-3.6 3-5.6-1.9-10.8-4.2-15.9-6.9 0.7-0.2 1.2-0.2 2 0.2 1.4 0.5 2.5 1.4 3.9 2 1.7 0.7 5.2 2.7 7.1 1.2 0.2 0.3 0.7 0.7 0.8 0.8 1.2-1.4 2.4-2.7 3.4-4.2-1.4 0.7-3.6 0.3-5.1 0.2-1.2-0.3-3.2-0.7-3.7-2 0.5-0.8 1.2-2.2 0.8-3-2.2 1.5-3.9 4.1-6.9 4.4-1.4 0-2.7 0-3.7-0.2-16.2-9-29.9-22-39.7-37.5 0.7-0.7 1.4-1.2 2-1.4 1.7-0.5 0-5.4 3.2-2.9 1-0.8 1.2-2 0.5-3.2 0.2 0.2 6.9-4.2 7.4-4.6 1.2-1 3-2.2 3.6-3.6 0.3-1.2-0.7-2.5-1.7-3-0.2 0.3-2.7 2.9-3 2.2-0.5-0.8 0-5.4 1.9-5.2-2.7-0.2-1.5-10.7-2.2-12.7 0-0.2 0.3-0.2 0.3-0.2-0.5-2 1.2-10 4.6-9.1-2.2-0.5 3.9-8.3 4.7-8.8 2.2-1.5 4.7-2.5 6.3-4.7 1.7-2.4 1.7-5.9 4.1-7.8-0.7-2 3.6-4.4 3.4-7.3-0.3-0.2-0.5-0.2-0.8-0.3 0.8-2.4 4.1-2.4 5.2-4.6 0.7-1.4 0-4.6 2.2-3.9 0.3 3.7-2.2 7.4-4.1 10.5-1 1.7-2 3.2-2.9 4.9-0.8 1.5-1 3.4-1.7 5.1 0.7-0.2 4.4-1.5 4.1-2-1.4-3.4 5.4-9.3 7.3-11.5 0.5-0.5 4.4-5.6 2.4-5.6 2.2 0 5.2-3.4 6.3-5.1 1.5-2.5 1.2-5.7 2.2-8.5 1-3.4 5.7-4.9 8.5-6.4 2.4-1.2 4.4-2.9 6.8-3.7 3.6-1.4 4.4-0.2 7.4 0.3 4.4 0.7 4.9-4.2 8.5-6.1 2.2-1.2 6.9-2.9 9.3-1.9-1-0.3 3.6-7.3 3.9-7.8 1.5-2 4.4-3 6.1-5.1 0.5 0.3 1 0.8 1.2 1.5-0.7-1.9 2.5-5.4 4.2-5.1 1.9 0.3 2.4 4.1 2.4 5.4-3.4-1.7-6.4-0.3-8.3 3-0.3 0.8-3 5.6-0.7 5.6 3.2 0 1 2.5 0.7 4.9s-2.7 3.9-3.9 5.9c-1-2-4.4-1.5-5.4 0.2 0-0.5-0.5-1.4-0.5-2-0.8 0-1.7-0.2-2.5 0.2 0.3 2 0.5 4.6 1 6.8 0.8 3 6.4 9-0.8 8.6-2.5-0.2-3.6-1.2-4.4-3.4-0.8-2-0.5-3.9-2.9-4.9-1.5-0.7-6.6-0.3-8.1 0.5-3.2 1.9-5.4 7.8-5.4 11.2-0.2 4.6 2.2 8.6 0 12.8 1 0.8 2 2.5 3.2 3.4 1 0.7 2.2-0.5 2.7 1.5-0.5 0.3-1.2 1-1.4 1 2.5-1.2 7.3 1.7 9.5 0 1.4-1 2.9-1.4 3.7 0.3 0.2 0.5-1.2 2.5-0.5 3.9 0.5-2.9 2.4-3.4 4.9-1.5 1-1 3.7-0.7 5.6-1.7 1.9-1.2 2.2-3 4.4-0.5 1.4-2 1.5-2 2-4.1 0.5-1.9 1.5-6.6 3.2-7.4 3.6-2.2 2.7 3.7 2.4 5.7-0.2 0.2-0.2 5.7-0.3 5.7-5.4 1.2-3.4 5.4-0.3 8.3 0.5 0.3 4.4 1.7 6.1 3 1.5 1.4 3.4 3.7 2.5 5.9 0.8 0 1.5 0.7 1.9 1.5-0.5 0.2-2.5 1.9-2.9 1.7 1.2 0.7 1 1.7 0.3 2.7 1.7 1 0.8 2.9 2.5 3.6 1.9-2.5 5.6 0.3 3.7 2.4 1.7 2.4 5.6 1.2 6.6 3.4 2.5-0.7 0.7 2.5 2 4.4 1.2 1.5 3.2 1.5 4.7 2.4 0-0.2 4.2 2.4 2.9 2.5 2.9-0.3 8.6 2.7 4.2 5.2 0.7 1.5-1.5 2.2-3 2.5 1.2 0.3 2.7-0.3 3.7 0.3 2.2 1.5 0.7 2.2-1.2 2.7-2.8 1-5.9-0.5-7.7-1.7zM272.9 47.029c23.2 4.1 43.8 15.6 59.3 32-1 1-2.9 0.7-4.2 1.4-1.4 0.5-2.4 1-4.1 1.4 0.3 3.4-3.4 4.6-5.7 6.3-2.2 1.7-3.6 3.6-6.8 2.9-0.3-0.2-3.7-1.4-3-2-2.2 1.9-3.2 2.9-6.1 3.7-2.7 0.8-4.6 4.2-7.3 1.2-1.4-1.4-0.7-3.4-1.4-4.7-2.2 1.9 2 4.1 0.3 6.1-2 2.4-5.6-1.5-7.3-2.5-1-0.8-2.2-1.2-2.9-2.2-0.8-1.2-1.2-2.7-1.9-3.9-0.5 1.4-3.4 1-3.6 2 0.7-4.1 0.7-8.3 1.5-12.3 0.5-2.4 0-6.3-2-8.1s-4.6-3.9-4.9-6.8c-0.3-2 0.2-3.9 2-4.4 0.2-2.5-2.7-4.4-2.5-7.1 0.3-0.4 0.5-2.1 0.6-3z" />
<glyph unicode="&#xe904;" glyph-name="copy" d="M64 288h256v-256h-256v256zM192 416v-64h192v-192h64v256h-256z" />
<glyph unicode="&#xe905;" glyph-name="x" d="M389.205 432h70.57l-154.176-176.214 181.376-239.786h-142.016l-111.232 145.429-127.275-145.429h-70.614l164.906 188.48-173.994 227.52h145.621l100.544-132.928zM364.438 58.24h39.104l-252.416 333.738h-41.963z" />
<glyph unicode="&#xe908;" glyph-name="zoomin" d="M497.914-17.914c-18.783-18.781-49.226-18.781-68.008 0l-84.863 84.864c-34.889-22.366-76.131-35.718-120.66-35.718-123.915 0-224.383 100.454-224.383 224.384s100.468 224.384 224.383 224.384c123.931 0 224.384-100.453 224.384-224.384 0-44.529-13.352-85.771-35.718-120.675l84.864-84.848c18.782-18.782 18.782-49.224 0.001-68.007zM224.383 415.89c-88.511 0-160.274-71.763-160.274-160.274 0-88.526 71.763-160.274 160.274-160.274 88.527 0 160.274 71.748 160.274 160.274 0 88.511-71.747 160.274-160.274 160.274zM256.438 159.452h-64.109v64.109h-64.109v64.109h64.109v64.11h64.109v-64.11h64.11v-64.109h-64.11v-64.109z" />
<glyph unicode="&#xe909;" glyph-name="zoomout" d="M497.914 50.094l-84.864 84.848c22.366 34.903 35.718 76.146 35.718 120.675 0 123.93-100.454 224.383-224.385 224.383-123.915 0-224.383-100.453-224.383-224.384s100.468-224.384 224.383-224.384c44.529 0 85.771 13.352 120.66 35.718l84.863-84.864c18.782-18.781 49.225-18.781 68.008 0 18.781 18.783 18.781 49.225 0 68.008zM224.383 95.342c-88.511 0-160.274 71.748-160.274 160.274 0 88.511 71.763 160.274 160.274 160.274 88.527 0 160.274-71.763 160.274-160.274 0-88.526-71.747-160.274-160.274-160.274zM128.219 223.562h192.329v64.109h-192.329v-64.109z" />
<glyph unicode="&#xe926;" glyph-name="file-text2" d="M458.903 365.462c-11.106 15.146-26.587 32.85-43.589 49.852s-34.706 32.482-49.852 43.589c-25.787 18.91-38.296 21.097-45.462 21.097h-248c-22.056 0-40-17.944-40-40v-432c0-22.056 17.944-40 40-40h368c22.056 0 40 17.944 40 40v312c0 7.166-2.186 19.675-21.097 45.462zM392.687 392.687c15.35-15.35 27.4-29.199 36.29-40.687h-76.977v76.973c11.492-8.89 25.339-20.939 40.687-36.286zM448 8c0-4.336-3.664-8-8-8h-368c-4.336 0-8 3.664-8 8v432c0 4.336 3.664 8 8 8 0 0 247.978 0.001 248 0v-112c0-8.836 7.163-16 16-16h112v-312zM368 64h-224c-8.836 0-16 7.163-16 16s7.164 16 16 16h224c8.837 0 16-7.163 16-16s-7.163-16-16-16zM368 128h-224c-8.836 0-16 7.163-16 16s7.164 16 16 16h224c8.837 0 16-7.163 16-16s-7.163-16-16-16zM368 192h-224c-8.836 0-16 7.163-16 16s7.164 16 16 16h224c8.837 0 16-7.163 16-16s-7.163-16-16-16z" />
<glyph unicode="&#xe927;" glyph-name="file-picture" d="M416 32h-320v64l96 160 131.5-160 92.5 64v-128zM416 240c0-26.51-21.49-48-48-48-26.511 0-48 21.49-48 48s21.489 48 48 48c26.51 0 48-21.49 48-48zM458.903 365.462c-11.106 15.146-26.587 32.85-43.589 49.852s-34.706 32.482-49.852 43.589c-25.787 18.91-38.296 21.097-45.462 21.097h-248c-22.056 0-40-17.944-40-40v-432c0-22.056 17.944-40 40-40h368c22.056 0 40 17.944 40 40v312c0 7.166-2.186 19.675-21.097 45.462zM392.687 392.687c15.35-15.35 27.4-29.199 36.29-40.687h-76.977v76.973c11.492-8.89 25.339-20.939 40.687-36.286zM448 8c0-4.336-3.664-8-8-8h-368c-4.336 0-8 3.664-8 8v432c0 4.336 3.664 8 8 8 0 0 247.978 0.001 248 0v-112c0-8.836 7.163-16 16-16h112v-312z" />
<glyph unicode="&#xe929;" glyph-name="file-play" d="M192 288l160-112-160-112v224zM458.903 365.462c-11.106 15.146-26.587 32.85-43.589 49.852s-34.706 32.482-49.852 43.589c-25.787 18.91-38.296 21.097-45.462 21.097h-248c-22.056 0-40-17.944-40-40v-432c0-22.056 17.944-40 40-40h368c22.056 0 40 17.944 40 40v312c0 7.166-2.186 19.675-21.097 45.462zM392.687 392.687c15.35-15.35 27.4-29.199 36.29-40.687h-76.977v76.973c11.492-8.89 25.339-20.939 40.687-36.286zM448 8c0-4.336-3.664-8-8-8h-368c-4.336 0-8 3.664-8 8v432c0 4.336 3.664 8 8 8 0 0 247.978 0.001 248 0v-112c0-8.836 7.163-16 16-16h112v-312z" />
<glyph unicode="&#xe9c5;" glyph-name="download2" d="M448 224h-80l-112-112-112 112h-80l-64-128v-32h512v32l-64 128zM0 32h512v-32h-512v32zM288 320v128h-64v-128h-112l144-144 144 144h-112z" />
<glyph unicode="&#xf053;" glyph-name="chevron-left" horiz-adv-x="366" d="M34.751 219.427q0 7.428 5.428 12.857l212 212q5.429 5.429 12.857 5.429t12.857-5.429l47.428-47.428q5.428-5.428 5.428-12.857t-5.428-12.857l-151.714-151.714 151.714-151.714q5.428-5.428 5.428-12.857t-5.428-12.857l-47.428-47.428q-5.428-5.428-12.857-5.428t-12.857 5.428l-212 212q-5.428 5.428-5.428 12.857z" />
<glyph unicode="&#xf054;" glyph-name="chevron-right" horiz-adv-x="366" d="M34.748 54.858q0 7.428 5.428 12.857l151.714 151.714-151.714 151.714q-5.428 5.428-5.428 12.857t5.428 12.857l47.428 47.428q5.428 5.428 12.857 5.428t12.857-5.428l212-212q5.428-5.428 5.428-12.857t-5.428-12.857l-212-212q-5.428-5.428-12.857-5.428t-12.857 5.428l-47.428 47.428q-5.428 5.428-5.428 12.857z" />
<glyph unicode="&#xf065;" glyph-name="expand" d="M36.571 18.286v128q0 7.428 5.428 12.857t12.857 5.428 12.857-5.428l41.143-41.143 94.857 94.857q2.857 2.857 6.572 2.857t6.572-2.857l32.572-32.572q2.857-2.857 2.857-6.572t-2.857-6.572l-94.857-94.857 41.143-41.143q5.428-5.428 5.428-12.857t-5.428-12.857-12.857-5.428h-128q-7.428 0-12.857 5.428t-5.428 12.857zM259.714 265.143q0 3.714 2.857 6.572l94.857 94.857-41.143 41.143q-5.428 5.428-5.428 12.857t5.428 12.857 12.857 5.428h128q7.428 0 12.857-5.428t5.428-12.857v-128q0-7.428-5.428-12.857t-12.857-5.428-12.857 5.428l-41.143 41.143-94.857-94.857q-2.857-2.857-6.572-2.857t-6.572 2.857l-32.572 32.572q-2.857 2.857-2.857 6.572z" />
<glyph unicode="&#xf099;" glyph-name="twitter" horiz-adv-x="476" d="M12.61 78.004q10-1.143 22.285-1.143 64.285 0 114.572 39.428-30 0.572-53.715 18.428t-32.572 45.572q9.428-1.428 17.428-1.428 12.285 0 24.285 3.143-32 6.572-53 31.857t-21 58.714v1.143q19.428-10.857 41.715-11.714-18.857 12.572-30 32.857t-11.143 44q0 25.143 12.572 46.572 34.572-42.572 84.143-68.143t106.143-28.428q-2.286 10.857-2.286 21.143 0 38.286 27 65.286t65.286 27q40 0 67.428-29.143 31.143 6 58.572 22.286-10.572-32.857-40.572-50.857 26.572 2.857 53.143 14.286-19.143-28-46.286-47.715 0.286-4 0.286-12 0-37.143-10.857-74.143t-33-71-52.714-60.143-73.714-41.714-92.286-15.572q-77.428 0-141.714 41.428z" />
<glyph unicode="&#xf09a;" glyph-name="facebook" horiz-adv-x="293" d="M22.823 198.576v84.572h72.857v62.286q0 53.143 29.715 82.428t79.143 29.286q42 0 65.143-3.429v-75.428h-44.857q-24.571 0-33.143-10.285t-8.572-30.857v-54h83.714l-11.143-84.572h-72.571v-216.857h-87.428v216.857h-72.857z" />
<glyph unicode="&#xf0bb;" glyph-name="playback-pause" horiz-adv-x="256" d="M-0.002 64.002h96v320h-96v-320zM159.998 384.002v-320h96v320h-96z" />
<glyph unicode="&#xf0bf;" glyph-name="playback-play" horiz-adv-x="256" d="M0.002 383.999l256-160-256-160v320z" />
<glyph unicode="&#xf0d2;" glyph-name="pinterest" d="M36.571 219.429q0 59.714 29.428 110.143t79.857 79.857 110.143 29.428 110.143-29.428 79.857-79.857 29.428-110.143-29.428-110.143-79.857-79.857-110.143-29.428q-31.715 0-62.285 9.143 16.857 26.572 22.286 46.857 2.571 9.714 15.428 60.286 5.714-11.143 20.857-19.286t32.571-8.143q34.572 0 61.714 19.572t42 53.857 14.857 77.143q0 32.572-17 61.143t-49.286 46.572-72.857 18q-30 0-56-8.286t-44.143-22-31.143-31.572-19.143-37-6.143-38.286q0-29.714 11.428-52.286t33.428-31.714q8.571-3.428 10.857 5.714 0.571 2 2.286 8.857t2.286 8.572q1.714 6.572-3.143 12.286-14.571 17.428-14.571 43.143 0 43.143 29.857 74.143t78.143 31q43.143 0 67.286-23.428t24.143-60.857q0-48.571-19.572-82.571t-50.143-34q-17.428 0-28 12.428t-6.572 29.857q2.286 10 7.572 26.714t8.572 29.428 3.286 21.572q0 14.286-7.714 23.714t-22 9.428q-17.714 0-30-16.286t-12.286-40.572q0-20.857 7.143-34.857l-28.285-119.428q-4.857-20-3.714-50.572-58.857 26-95.143 80.286t-36.285 120.857z" />
<glyph unicode="&#xf10e;" glyph-name="quote-right" horiz-adv-x="476" d="M21.641 252.675v99.741q0 20.779 14.545 35.325t35.325 14.545h99.741q20.779 0 35.325-14.545t14.546-35.325v-182.858q0-27.014-10.519-51.559t-28.441-42.468-42.468-28.442-51.559-10.519h-16.624q-6.753 0-11.688 4.935t-4.935 11.688v33.247q0 6.753 4.935 11.688t11.688 4.935h16.624q27.532 0 47.013 19.481t19.481 47.014v8.312q0 10.389-7.273 17.663t-17.662 7.273h-58.182q-20.779 0-35.325 14.546t-14.546 35.325zM254.369 252.675v99.741q0 20.779 14.545 35.325t35.325 14.545h99.741q20.779 0 35.325-14.545t14.546-35.325v-182.858q0-27.014-10.519-51.559t-28.442-42.468-42.468-28.442-51.559-10.519h-16.623q-6.753 0-11.688 4.935t-4.935 11.688v33.247q0 6.753 4.935 11.688t11.688 4.935h16.623q27.533 0 47.014 19.481t19.481 47.014v8.312q0 10.389-7.273 17.663t-17.663 7.273h-58.182q-20.779 0-35.325 14.546t-14.546 35.325z" />
<glyph unicode="&#xf137;" glyph-name="chevron-circle-left" d="M36.571 219.429q0 59.714 29.428 110.143t79.857 79.857 110.143 29.428 110.143-29.428 79.857-79.857 29.428-110.143-29.428-110.143-79.857-79.857-110.143-29.428-110.143 29.428-79.857 79.857-29.428 110.143zM135.428 219.429q0-7.428 5.428-12.857l129.714-129.714q5.428-5.428 12.857-5.428t12.857 5.428l29.143 29.143q5.428 5.428 5.428 12.857t-5.428 12.857l-87.714 87.714 87.714 87.714q5.428 5.428 5.428 12.857t-5.428 12.857l-29.143 29.143q-5.428 5.428-12.857 5.428t-12.857-5.428l-129.714-129.714q-5.428-5.428-5.428-12.857z" />
<glyph unicode="&#xf138;" glyph-name="chevron-circle-right" d="M36.571 219.429q0 59.714 29.428 110.143t79.857 79.857 110.143 29.428 110.143-29.428 79.857-79.857 29.428-110.143-29.428-110.143-79.857-79.857-110.143-29.428-110.143 29.428-79.857 79.857-29.428 110.143zM181.143 118.857q0-7.428 5.429-12.857l29.143-29.143q5.429-5.428 12.857-5.428t12.857 5.428l129.715 129.714q5.428 5.428 5.428 12.857t-5.428 12.857l-129.714 129.714q-5.428 5.429-12.857 5.429t-12.857-5.429l-29.143-29.143q-5.429-5.428-5.429-12.857t5.428-12.857l87.714-87.714-87.714-87.714q-5.428-5.428-5.428-12.857z" />
<glyph unicode="&#xf232;" glyph-name="whatsapp" horiz-adv-x="439" d="M281.428 197.143c4.857 0 51.428-24.286 53.428-27.714 0.572-1.428 0.572-3.143 0.572-4.286 0-7.143-2.286-15.143-4.857-21.714-6.572-16-33.143-26.286-49.428-26.286-13.714 0-42 12-54.286 17.714-40.857 18.572-66.286 50.286-90.857 86.572-10.857 16-20.572 35.714-20.285 55.428v2.286c0.572 18.857 7.428 32.286 21.143 45.143 4.286 4 8.857 6.286 14.857 6.286 3.429 0 6.857-0.857 10.571-0.857 7.714 0 9.143-2.286 12-9.714 2-4.857 16.572-43.714 16.572-46.572 0-10.857-19.714-23.143-19.714-29.714 0-1.429 0.571-2.857 1.429-4.286 6.286-13.428 18.285-28.857 29.143-39.143 13.143-12.572 27.143-20.857 43.143-28.857 2-1.143 4-2 6.286-2 8.571 0 22.857 27.714 30.285 27.714zM223.429 45.714c98.857 0 179.429 80.572 179.429 179.428s-80.572 179.429-179.429 179.429-179.429-80.572-179.429-179.429c0-37.714 12-74.571 34.285-105.143l-22.572-66.572 69.143 22c29.143-19.143 63.715-29.714 98.571-29.714zM223.429 440.572c118.857 0 215.429-96.571 215.429-215.428s-96.572-215.429-215.429-215.429c-36.285 0-72.285 9.143-104.285 26.857l-119.143-38.286 38.857 115.714c-20.285 33.428-30.857 72-30.857 111.143 0 118.857 96.572 215.429 215.429 215.429z" />
</font>
</defs>
</svg>
